#TITLE:JJANG-GAH;
#SUBTITLE:;
#ARTIST:Kim Gun Mo;
#TITLETRANSLIT:;
#SUBTITLETRANSLIT:;
#ARTISTTRANSLIT:;
#CREDIT:;
#BANNER:jjangah-banner.png;
#BACKGROUND:jjangah-bg.png;
#LYRICSPATH:;
#CDTITLE:;
#MUSIC:Jjangah.mp3;
#MUSICLENGTH:83.565;
#OFFSET:-0.060;
#SAMPLESTART:28.545;
#SAMPLELENGTH:12.000;
#SELECTABLE:YES;
#BPMS:0.000=108.000;
#STOPS:;
#BGCHANGES:;
#FIRSTBEAT:12.000;

#LASTBEAT:148.000;

#SONGFILENAME:Songs/ERICth MIX 2nd Style/Jjangah/jjangah.sm;

#HASMUSIC:1;

#HASBANNER:1;


//---------------dance-single - MANIAC----------------
#NOTES:
     dance-single:
     MANIAC:
     hard:
     8:
     0.472,0.509,0.347,0.060,0.191,242.000,29.000,5.000,0.000,0.000:

0000
0000
0000
0000
,
0000
0000
0000
0000
,
0000
0000
0000
0000
,
0000
0000
0000
0000
,
0001
0000
1000
0000
,
1000
0010
1000
0010
1000
0000
1000
0000
0001
0000
0001
0000
0100
0000
0100
0000
,
1000
0100
1000
0100
1000
0000
0010
0000
0110
0000
0110
0000
0110
0000
0000
0000
,
0010
0001
0010
0001
1000
0000
1000
0000
0100
0000
0100
0000
0001
0000
0001
0000
,
1000
0001
1000
0001
1000
0000
0100
0000
1001
0000
1001
0000
1001
0000
0000
0000
,
1000
0100
0010
0000
0010
0000
0000
0000
,
0001
0100
0010
0000
0010
1000
1010
0000
,
2000
3000
0200
0300
0020
0030
0000
0000
,
0001
1000
0100
1000
0001
0000
0000
0000
,
0001
0010
0100
0000
0100
0000
0000
0000
,
1000
0010
0100
0000
0100
0001
0101
0000
,
1000
1000
0010
0010
0100
0100
0001
0001
,
1000
0010
0100
0001
1000
0000
0000
0000
,
0100
0010
0100
0010
0100
0000
0100
0000
1000
0000
1000
0000
0001
0000
0001
0000
,
1000
0010
1000
0010
1000
0000
1000
0000
1100
0000
1100
0000
1100
0000
0000
0000
,
0010
0100
0010
0100
0010
0000
0010
0000
1000
0000
1000
0000
0100
0000
0100
0000
,
0010
1000
0010
1000
0010
0000
0100
0000
0101
0000
0101
0000
0101
0000
0000
0000
,
1000
0001
0100
0000
0100
0000
0000
0000
,
0001
1000
0100
0000
0100
0100
0100
0000
,
1000
0100
0010
0001
1000
0000
0110
0000
,
0001
0100
0010
1000
0001
1000
1001
0000
,
1000
0001
0010
0000
0010
0000
0000
0000
,
0001
1000
0010
0000
0010
0010
0010
0000
,
0010
0010
0100
0100
0001
0001
1000
1000
,
0001
1000
0100
0001
0100
0000
0101
0000
,
1000
0010
1000
0010
1000
0000
1000
0000
0001
0000
0001
0000
0100
0000
0100
0000
,
1000
0100
1000
0100
1000
0000
0010
0000
0110
0000
0110
0000
0110
0000
0000
0000
,
0010
0001
0010
0001
1000
0000
1000
0000
0100
0000
0100
0000
0001
0000
0001
0000
,
1000
0001
1000
0001
1000
0000
0100
0000
1001
0000
1001
0000
1001
0000
0000
0000
,
0100
0010
0100
0010
0100
0000
0100
0000
1000
0000
1000
0000
0001
0000
0001
0000
,
1000
0010
1000
0010
1000
0000
1000
0000
1100
0000
1100
0000
1100
0000
0000
0000
,
0010
0100
0010
0100
0010
0000
0010
0000
1000
0000
1000
0000
0100
0000
0100
0000
,
0010
1000
0010
1000
0010
0000
0100
0000
0101
0000
0101
0000
0202
0000
0000
0000
,
0303
0000
0000
0000;

//---------------dance-single - ANOTHER----------------
#NOTES:
     dance-single:
     ANOTHER:
     medium:
     5:
     0.306,0.418,0.180,0.000,0.000,164.000,15.000,0.000,0.000,0.000:

0000
0000
0000
0000
,
0000
0000
0000
0000
,
0000
0000
0000
0000
,
1000
0000
0001
0000
,
1000
0000
0000
0000
0001
0001
0001
0000
,
0001
0000
1000
0000
0010
1000
0010
1000
,
0001
0000
0100
0000
0110
0110
0110
0000
,
0001
1000
0100
0000
0100
1000
0001
0000
,
0010
0001
0010
0001
0100
0100
0110
0000
,
0010
1000
0100
0000
,
0001
0100
0010
0000
,
0010
0100
0010
0000
,
0001
0010
0100
0000
,
0010
0100
1000
0000
,
1000
0100
0001
0000
,
0010
1000
0001
0100
,
0010
0100
0001
1000
0001
0000
0000
0000
,
0100
1000
0010
1000
0100
1000
0010
1000
,
0100
1000
0010
1000
0100
0100
0100
0000
,
0010
0001
0100
0001
0010
0001
0100
0001
,
0010
0001
0100
0001
0010
0010
0010
0000
,
0001
1000
0010
0000
,
1000
0001
0010
0000
,
0100
1000
0001
0000
,
0001
1000
0100
0000
,
0010
0100
0001
0000
,
0010
0100
1000
0001
,
1000
0001
1000
0010
,
0001
0001
0010
0000
,
1000
0000
0100
0000
1000
0100
1000
0100
,
1000
0100
1000
0010
1001
1001
1001
0000
,
0001
1000
0100
0010
,
0001
0000
0010
0001
0010
0011
0011
0000
,
0001
0000
1000
0000
0100
1000
0010
1000
,
0001
0100
0001
0010
0011
0011
0011
0000
,
0001
1000
0100
1000
0100
1000
0100
1000
,
0001
1000
0001
1000
1001
0110
1001
0000;

//---------------dance-single - BASIC----------------
#NOTES:
     dance-single:
     BASIC:
     easy:
     4:
     0.197,0.244,0.132,0.048,0.000,100.000,11.000,4.000,0.000,0.000:

0000
0000
0000
0000
,
0000
0000
0000
0000
,
0000
0000
0000
0000
,
0000
0000
0000
0000
,
0000
0000
0000
0000
,
0010
0010
1000
1000
,
0100
0100
0001
0001
,
0001
0001
0100
0100
,
1000
1000
0010
0010
,
1001
0000
0000
0000
,
0011
0000
0000
0000
,
1100
0000
0000
0000
,
0110
0000
0000
0100
,
0100
0000
0000
0001
,
0001
0000
0001
0000
,
1000
1000
1000
0010
,
0010
0001
1000
0000
,
1001
1001
1001
0100
,
0010
0100
0002
1003
,
0001
1000
0010
0100
,
0001
1000
0020
0030
,
0010
0001
0001
0100
,
1000
1000
1000
0010
,
0100
0000
0001
0000
,
1000
0100
0001
0000
,
0010
0010
0010
0000
,
0100
0100
0110
0000
,
0001
0000
1000
0000
,
1000
0001
1001
0000
,
0110
0000
0001
0010
,
0001
1000
0100
0010
,
0001
1000
0010
0000
,
0010
0100
0001
0100
,
0010
1000
0100
0010
,
0001
0000
0010
0010
,
0010
0001
1000
0010
,
0100
0001
1000
2200
,
3300
0000
0000
0000;
